Quick Browse
Movies
TV shows
Music
Games
Applications
Anime
Other

Latest Articles

Friends
Torrents.me
Torrent Download
Free Movies
1337x
RARBG
Torrent Downloads

Come Sunday 2018 WEBRip x264-FGT


    Seeders : 0      Leechers : 0

Hash :557E98FD5A0FB4BFE036CC9AB35A77905FCD9318
Added :7 hours ago in Movies - Movies
Size :1020.05 MB
Stream :Watch Online Full Movie @ Movie4u
Share :


Come Sunday 2018 WEBRip x264-FGT
Download Direct And Anonymously








Note :

Please Update (Trackers Info) Before Downloading Torrents to See Updated Seeders And Leechers for Batter Download Speed.

Trackers List

Tracker NameLast CheckStatusSeedersLeechers




Torrent File Content (3 files)


Come.Sunday.2018.WEBRip.x264-FGT
     Come.Sunday.2018.WEBRip.x264-FGT.mp4 -
1019.92 MB

     English.srt -
126.41 KB

     RARBG.txt -
31 bytes



Description



Movies : Drama : WEBRip : English
Video
ID : 1
Format : AVC
Format/Info : Advanced Video Codec
Format profile : [email protected]
Format settings : CABAC / 5 Ref Frames
Format settings, CABAC : Yes
Format settings, ReFrames : 5 frames
Codec ID : avc1
Codec ID/Info : Advanced Video Coding
Duration : 1 h 45 min
Bit rate : 1 100 kb/s
Width : 720 pixels
Height : 304 pixels
Display aspect ratio : 2.40:1
Original display aspect ratio : 2.40:1
Frame rate mode : Constant
Frame rate : 23.976 (24000/1001) FPS
Color space : YUV
Chroma subsampling : 4:2:0
Bit depth : 8 bits
Scan type : Progressive
Bits/(Pixel*Frame) : 0.210
Stream size : 823 MiB (81%)
Title : Come.Sunday.2018.WEBRip.x264-FGT
Writing library : x264 core 148 r2795M aaa9aa8
Encoding settings : cabac=1 / ref=5 / deblock=1:-1:-1 / analyse=0x3:0x113 / me=umh / subme=9 / psy=1 / psy_rd=1.00:0.15 / mixed_ref=1 / me_range=16 / chroma_me=1 / trellis=2 / 8x8dct=1 / cqm=0 / deadzone=21,11 / fast_pskip=1 / chroma_qp_offset=-3 / threads=24 / lookahead_threads=2 / sliced_threads=0 / nr=0 / decimate=1 / interlaced=0 / bluray_compat=0 / constrained_intra=0 / bframes=3 / b_pyramid=2 / b_adapt=2 / b_bias=0 / direct=3 / weightb=1 / open_gop=0 / weightp=2 / keyint=250 / keyint_min=23 / scenecut=40 / intra_refresh=0 / rc_lookahead=50 / rc=abr / mbtree=1 / bitrate=1100 / ratetol=1.0 / qcomp=0.60 / qpmin=0 / qpmax=69 / qpstep=4 / ip_ratio=1.40 / aq=1:1.00

Audio
ID : 2
Format : AAC
Format/Info : Advanced Audio Codec
Format profile : LC
Codec ID : mp4a-40-2
Duration : 1 h 45 min
Duration_LastFrame : -11 ms
Bit rate mode : Constant
Bit rate : 256 kb/s
Channel(s) : 2 channels
Channel positions : Front: L R
Sampling rate : 48.0 kHz
Frame rate : 46.875 FPS (1024 SPF)
Compression mode : Lossy
Stream size : 193 MiB (19%)
Title : Come.Sunday.2018.WEBRip.x264-FGT
Language : English
Default : Yes
Alternate group : 1



Related torrents

Torrent NameAddedSizeSeedLeechHealth
Verified torrent
3 days ago - in Movies884.74 MB21
3 days ago - in Movies852.33 MB00
Verified torrent
4 days ago - in Movies1.84 GB750249
19 hours ago - in Movies1.35 GB00
3 days ago - in Movies809.92 MB00

Note :

Feel free to post any comments about this torrent, including links to Subtitle, samples, screenshots, or any other relevant information. Please Dont Download anything from Comments, And Dont Post Links to Streaming Sites like Fmovies, Xmovies8, 123Movies, GoMovies, CMovieshd, Solarmovie, Watchfree, Putlockers, GoStream, m4ufree etc.

Comments (0 Comments)




Please login or create a FREE account to post comments

Latest Searches

| family raven hart | master trucks | back roads 2017 | Betrayed By The Sun National Geographic | Star vs the Forces of Evil S03E14 720p | The Opening of Misty Beethoven 1976 Explicit Version | stand by me lord | hdtv x264 c4tv | Seiren Popeye The Sailor Man | confident chance |