Quick Browse
Movies
TV shows
Music
Games
Applications
Anime
Other

Latest Articles

Friends
Torrents.me
Torrent Download
Free Movies
1337x
RARBG
Torrent Downloads

Hostiles 2017 1080p BluRay x264-GECKOS


    Seeders : 0      Leechers : 0

Hash :73F8813205FA2D4CB453829F37E3627395225B21
Added :41 minutes ago in Movies - Movies
Size :9.84 GB
Stream :Watch Online Full Movie @ Movie4u
Share :


Hostiles 2017 1080p BluRay x264-GECKOS
Download Direct And Anonymously








Note :

Please Update (Trackers Info) Before Downloading Torrents to See Updated Seeders And Leechers for Batter Download Speed.

Trackers List

Tracker NameLast CheckStatusSeedersLeechers




Torrent File Content (5 files)


Hostiles.2017.1080p.BluRay.x264-GECKOS[rarbg]
     Hostiles.2017.1080p.BluRay.x264-GECKOS.mkv -
9.84 GB

     RARBG.txt -
30 bytes

    Subs
          hostiles.2017.1080p.BluRay.x264-GECKOS.idx -
83.48 KB

          hostiles.2017.1080p.BluRay.x264-GECKOS.sub -
6.03 MB

     hostiles.2017.1080p.bluray.x264-geckos.nfo -
3.24 KB



Description



Movies : Adventure : HD 1080p / 1080i : English
Video
ID : 1
Format : AVC
Format/Info : Advanced Video Codec
Format profile : [email protected]
Format settings : CABAC / 5 Ref Frames
Format settings, CABAC : Yes
Format settings, RefFrames : 5 frames
Codec ID : V_MPEG4/ISO/AVC
Duration : 2 h 14 min
Bit rate : 8 979 kb/s
Width : 1 920 pixels
Height : 808 pixels
Display aspect ratio : 2.40:1
Frame rate mode : Constant
Frame rate : 23.976 FPS
Color space : YUV
Chroma subsampling : 4:2:0
Bit depth : 8 bits
Scan type : Progressive
Bits/(Pixel*Frame) : 0.241
Stream size : 8.42 GiB (86%)
Writing library : x264 core 155 r2901 7d0ff22
Encoding settings : cabac=1 / ref=5 / deblock=1:0:0 / analyse=0x3:0x133 / me=umh / subme=7 / psy=1 / psy_rd=1.00:0.00 / mixed_ref=1 / me_range=16 / chroma_me=1 / trellis=1 / 8x8dct=1 / cqm=0 / deadzone=21,11 / fast_pskip=0 / chroma_qp_offset=-2 / threads=25 / lookahead_threads=4 / sliced_threads=0 / nr=0 / decimate=1 / interlaced=0 / bluray_compat=0 / constrained_intra=0 / bframes=3 / b_pyramid=2 / b_adapt=1 / b_bias=0 / direct=1 / weightb=1 / open_gop=0 / weightp=2 / keyint=250 / keyint_min=23 / scenecut=40 / intra_refresh=0 / rc_lookahead=40 / rc=2pass / mbtree=1 / bitrate=8979 / ratetol=1.0 / qcomp=0.60 / qpmin=0 / qpmax=69 / qpstep=4 / cplxblur=20.0 / qblur=0.5 / ip_ratio=1.40 / aq=1:1.00
Language : English
Default : Yes
Forced : No

Audio
ID : 2
Format : DTS
Format/Info : Digital Theater Systems
Mode : 16
Format settings, Endianness : Big
Codec ID : A_DTS
Duration : 2 h 14 min
Bit rate mode : Constant
Bit rate : 1 509 kb/s
Channel(s) : 6 channels
Channel positions : Front: L C R, Side: L R, LFE
Sampling rate : 48.0 kHz
Frame rate : 93.750 FPS (512 SPF)
Bit depth : 24 bits
Compression mode : Lossy
Stream size : 1.42 GiB (14%)
Language : English
Default : Yes
Forced : No

Menu
00:00:00.000 : en:00:00:00.000
00:08:18.540 : en:00:08:18.540
00:20:32.064 : en:00:20:32.064
00:25:28.819 : en:00:25:28.819
00:34:48.336 : en:00:34:48.336
00:40:23.546 : en:00:40:23.546
00:51:40.597 : en:00:51:40.597
01:00:18.615 : en:01:00:18.615
01:08:17.176 : en:01:08:17.176
01:14:52.071 : en:01:14:52.071
01:25:29.249 : en:01:25:29.249
01:34:35.461 : en:01:34:35.461
01:43:05.513 : en:01:43:05.513
01:50:45.973 : en:01:50:45.973
01:54:10.677 : en:01:54:10.677
02:05:21.806 : en:02:05:21.806



Related torrents

Torrent NameAddedSizeSeedLeechHealth
9 hours ago - in Movies6.6 GB00
3 days ago - in Movies7.75 GB00
Verified torrent
3 days ago - in Movies7.67 GB2227
Verified torrent
14 days ago - in Movies8.76 GB904215
Verified torrent
14 days ago - in Movies8.88 GB12361
19 days ago - in Movies9.94 GB00

Note :

Feel free to post any comments about this torrent, including links to Subtitle, samples, screenshots, or any other relevant information. Please Dont Download anything from Comments, And Dont Post Links to Streaming Sites like Fmovies, Xmovies8, 123Movies, GoMovies, CMovieshd, Solarmovie, Watchfree, Putlockers, GoStream, m4ufree etc.

Comments (0 Comments)




Please login or create a FREE account to post comments

Latest Searches

| 9 EuroDance megamix | beth hart joe bonamassa live in amsterdam | Diners Dives S27E02 | Dragonball super 95 | Addison Rich TeensLoveHugeCocks | Future certified | Avalon Heart TeensLoveHugeCocks | Three 6 mafia most | Tiger Survivor Eye | NASCAR ALL STAR 2017 |