Quick Browse
Movies
TV shows
Music
Games
Applications
Anime
Other

Latest Articles

Friends
Torrents.me
Torrent Download
Free Movies
1337x
RARBG
Torrent Downloads

Maze Runner The Death Cure 2018 1080p BluRay x264-SPARKS


    Seeders : 0      Leechers : 0

Hash :BB5DA25D46A07D003AC02903EC84A2DBECFD8956
Added :12 hours ago in Movies - Movies
Size :10.97 GB
Stream :Watch Online Full Movie @ Movie4u
Share :









Note :

Please Update (Trackers Info) Before Downloading Torrents to See Updated Seeders And Leechers for Batter Download Speed.

Trackers List

Tracker NameLast CheckStatusSeedersLeechers




Torrent File Content (6 files)


Maze.Runner.The.Death.Cure.2018.1080p.BluRay.x264-SPARKS[rarbg]
     Maze.Runner.The.Death.Cure.2018.1080p.BluRay.x264-SPARKS.mkv -
10.93 GB

     RARBG.txt -
30 bytes

    Subs
          Maze.Runner.The.Death.Cure.2018.1080p.BluRay.x264-SPARKS.idx -
224.01 KB

          Maze.Runner.The.Death.Cure.2018.1080p.BluRay.x264-SPARKS.sub -
37.01 MB

     maze.runner.the.death.cure.2018.1080p.bluray.x264-sparks.jpg -
158.63 KB

     maze.runner.the.death.cure.2018.1080p.bluray.x264-sparks.nfo -
4.23 KB



Description



Movies : Sci-Fi : HD 1080p / 1080i : English
Video
ID : 1
Format : AVC
Format/Info : Advanced Video Codec
Format profile : [email protected]
Format settings : CABAC / 5 Ref Frames
Format settings, CABAC : Yes
Format settings, RefFrames : 5 frames
Codec ID : V_MPEG4/ISO/AVC
Duration : 2 h 23 min
Bit rate : 9 369 kb/s
Width : 1 920 pixels
Height : 800 pixels
Display aspect ratio : 2.40:1
Frame rate mode : Constant
Frame rate : 23.976 FPS
Color space : YUV
Chroma subsampling : 4:2:0
Bit depth : 8 bits
Scan type : Progressive
Bits/(Pixel*Frame) : 0.254
Stream size : 9.41 GiB (86%)
Writing library : x264 core 155 r2901 7d0ff22
Encoding settings : cabac=1 / ref=5 / deblock=1:0:0 / analyse=0x3:0x133 / me=umh / subme=7 / psy=1 / psy_rd=1.00:0.00 / mixed_ref=1 / me_range=16 / chroma_me=1 / trellis=1 / 8x8dct=1 / cqm=0 / deadzone=21,11 / fast_pskip=0 / chroma_qp_offset=-2 / threads=25 / lookahead_threads=4 / sliced_threads=0 / nr=0 / decimate=1 / interlaced=0 / bluray_compat=0 / constrained_intra=0 / bframes=3 / b_pyramid=2 / b_adapt=1 / b_bias=0 / direct=1 / weightb=1 / open_gop=0 / weightp=2 / keyint=250 / keyint_min=23 / scenecut=40 / intra_refresh=0 / rc_lookahead=40 / rc=2pass / mbtree=1 / bitrate=9369 / ratetol=1.0 / qcomp=0.60 / qpmin=0 / qpmax=69 / qpstep=4 / cplxblur=20.0 / qblur=0.5 / ip_ratio=1.40 / aq=1:1.00
Language : English
Default : Yes
Forced : No

Audio
ID : 2
Format : DTS
Format/Info : Digital Theater Systems
Mode : 16
Format settings, Endianness : Big
Codec ID : A_DTS
Duration : 2 h 23 min
Bit rate mode : Constant
Bit rate : 1 509 kb/s
Channel(s) : 6 channels
Channel positions : Front: L C R, Side: L R, LFE
Sampling rate : 48.0 kHz
Frame rate : 93.750 FPS (512 SPF)
Bit depth : 24 bits
Compression mode : Lossy
Stream size : 1.52 GiB (14%)
Language : English
Default : Yes
Forced : No

Menu
00:00:00.000 : en:00:00:00.000
00:11:31.608 : en:00:11:31.608
00:15:59.750 : en:00:15:59.750
00:20:08.457 : en:00:20:08.457
00:24:34.890 : en:00:24:34.890
00:30:40.547 : en:00:30:40.547
00:36:47.330 : en:00:36:47.330
00:43:15.343 : en:00:43:15.343
00:48:06.342 : en:00:48:06.342
00:55:17.397 : en:00:55:17.397
01:02:42.926 : en:01:02:42.926
01:07:14.489 : en:01:07:14.489
01:11:56.062 : en:01:11:56.062
01:15:48.210 : en:01:15:48.210
01:23:20.329 : en:01:23:20.329
01:29:45.422 : en:01:29:45.422
01:34:00.593 : en:01:34:00.593
01:40:09.795 : en:01:40:09.795
01:43:33.082 : en:01:43:33.082
01:53:38.645 : en:01:53:38.645
01:59:43.885 : en:01:59:43.885
02:04:49.399 : en:02:04:49.399
02:10:03.087 : en:02:10:03.087
02:18:03.859 : en:02:18:03.859



Related torrents

Torrent NameAddedSizeSeedLeechHealth
5 days ago - in Movies10.93 GB1722
Verified torrent
5 days ago - in Movies11.04 GB238400
5 days ago - in Movies6.6 GB00
5 days ago - in Movies6.56 GB24
5 days ago - in Movies6.66 GB4487
Yesterday - in Movies3.47 GB397390

Note :

Feel free to post any comments about this torrent, including links to Subtitle, samples, screenshots, or any other relevant information. Please Dont Download anything from Comments, And Dont Post Links to Streaming Sites like Fmovies, Xmovies8, 123Movies, GoMovies, CMovieshd, Solarmovie, Watchfree, Putlockers, GoStream, m4ufree etc.

Comments (0 Comments)




Please login or create a FREE account to post comments

Latest Searches

| Petra Beyond Belief | the spirit will | mia x everything | 5 cent still l kill | Three 6 mafia 2012 | hide my serial | beatles revolution | Has h | john wick 2 1080p mp4 | Le Maitre chinois 2 |