Quick Browse
Movies
TV shows
Music
Games
Applications
Anime
Other

Latest Articles

Friends
Torrents.me
Torrent Download
Free Movies
1337x
RARBG
Torrent Downloads

Red Sparrow 2018 1080p KORSUB HDRip x264 AAC2 0-STUTTERSHIT


    Seeders : 0      Leechers : 0

Hash :30F37215F24A987B3F57BB78E8130F21676557FA
Added :1 hour ago in Movies - Movies
Size :4.84 GB
Stream :Watch Online Full Movie @ Movie4u
Share :









Note :

Please Update (Trackers Info) Before Downloading Torrents to See Updated Seeders And Leechers for Batter Download Speed.

Trackers List

Tracker NameLast CheckStatusSeedersLeechers




Torrent File Content (2 files)


Red.Sparrow.2018.1080p.KORSUB.HDRip.x264.AAC2.0-STUTTERSHIT
     RARBG.txt -
31 bytes

     Red.Sparrow.2018.1080p.KORSUB.HDRip.x264.AAC2.0-STUTTERSHIT.mkv -
4.84 GB



Description



Movies : Drama : HD 1080p / 1080i : English
Video
ID : 1
Format : AVC
Format/Info : Advanced Video Codec
Format profile : [email protected]
Format settings : CABAC / 3 Ref Frames
Format settings, CABAC : Yes
Format settings, ReFrames : 3 frames
Codec ID : V_MPEG4/ISO/AVC
Duration : 2 h 15 min
Bit rate mode : Variable
Bit rate : 4 882 kb/s
Maximum bit rate : 40.0 Mb/s
Width : 1 904 pixels
Height : 800 pixels
Display aspect ratio : 2.40:1
Frame rate mode : Constant
Frame rate : 29.970 (30000/1001) FPS
Color space : YUV
Chroma subsampling : 4:2:0
Bit depth : 8 bits
Scan type : Progressive
Bits/(Pixel*Frame) : 0.107
Stream size : 4.63 GiB (96%)
Title : Red.Sparrow.2018.1080p.KORSUB.HDRip.x264.AAC2.0-STUTTERSHIT
Writing library : x264 core 152 r2851 ba24899
Encoding settings : cabac=1 / ref=3 / deblock=1:0:0 / analyse=0x3:0x113 / me=hex / subme=7 / psy=1 / psy_rd=1.00:0.00 / mixed_ref=1 / me_range=16 / chroma_me=1 / trellis=1 / 8x8dct=1 / cqm=0 / deadzone=21,11 / fast_pskip=1 / chroma_qp_offset=-2 / threads=18 / lookahead_threads=3 / sliced_threads=0 / nr=0 / decimate=1 / interlaced=0 / bluray_compat=1 / constrained_intra=0 / bframes=3 / b_pyramid=1 / b_adapt=1 / b_bias=0 / direct=1 / weightb=1 / open_gop=0 / weightp=1 / keyint=36 / keyint_min=1 / scenecut=40 / intra_refresh=0 / rc_lookahead=36 / rc=2pass / mbtree=1 / bitrate=4882 / ratetol=1.0 / qcomp=0.60 / qpmin=0 / qpmax=69 / qpstep=4 / cplxblur=20.0 / qblur=0.5 / vbv_maxrate=40000 / vbv_bufsize=30000 / nal_hrd=vbr / filler=0 / ip_ratio=1.40 / aq=1:1.00
Default : Yes
Forced : No
Color range : Limited
Color primaries : BT.709
Transfer characteristics : BT.709
Matrix coefficients : BT.709

Audio
ID : 2
Format : AAC
Format/Info : Advanced Audio Codec
Format profile : LC
Codec ID : A_AAC-2
Duration : 2 h 15 min
Bit rate : 224 kb/s
Channel(s) : 2 channels
Channel positions : Front: L R
Sampling rate : 48.0 kHz
Frame rate : 46.875 FPS (1024 SPF)
Compression mode : Lossy
Stream size : 218 MiB (4%)
Title : Red.Sparrow.2018.1080p.KORSUB.HDRip.x264.AAC2.0-STUTTERSHIT
Language : English
Default : Yes
Forced : No



Related torrents

Torrent NameAddedSizeSeedLeechHealth
17 hours ago - in Movies2.47 GB00
13 days ago - in Movies4.11 GB00
19 days ago - in Movies4.21 GB00
20 days ago - in Movies3.36 GB00
2 Comments
1 Bad
Verified torrent
21 days ago - in Movies4.69 GB4,3291,003
17 hours ago - in Movies1.4 GB00

Note :

Feel free to post any comments about this torrent, including links to Subtitle, samples, screenshots, or any other relevant information. Please Dont Download anything from Comments, And Dont Post Links to Streaming Sites like Fmovies, Xmovies8, 123Movies, GoMovies, CMovieshd, Solarmovie, Watchfree, Putlockers, GoStream, m4ufree etc.

Comments (0 Comments)




Please login or create a FREE account to post comments

Latest Searches

| Building Dream Homes 09of15 | My Name Is Nobody Ennio Morricone | o cacador de recompensas | steinsgate the movie eng | codewarrior 5 2 | new november 01 2017 | 20 Years After A Woodstock Reunion Concert | C G Gonzalez | inna money | Convoy 1978 1080p BrRip x264 YIFY |