Quick Browse
Movies
TV shows
Music
Games
Applications
Anime
Other

Latest Articles

Friends
Torrents.me
Torrent Download
Free Movies
1337x
RARBG
Torrent Downloads

Red Sparrow 2018 KORSUB HDRip XviD MP3-STUTTERSHIT


    Seeders : 0      Leechers : 0

Hash :B2B73651EC49D46EC6261A801B4F4053C16D317C
Added :1 hour ago in Movies - Movies
Size :1.48 GB
Stream :Watch Online Full Movie @ Movie4u
Share :










Note :

Please Update (Trackers Info) Before Downloading Torrents to See Updated Seeders And Leechers for Batter Download Speed.

Trackers List

Tracker NameLast CheckStatusSeedersLeechers




Torrent File Content (2 files)


Red.Sparrow.2018.KORSUB.HDRip.XviD.MP3-STUTTERSHIT
     RARBG.txt -
31 bytes

     Red.Sparrow.2018.KORSUB.HDRip.XviD.MP3-STUTTERSHIT.avi -
1.48 GB



Description



Movies : Drama : HDRip : English
Video
ID : 0
Format : MPEG-4 Visual
Format profile : [email protected]
Format settings, BVOP : No
Format settings, QPel : No
Format settings, GMC : No warppoints
Format settings, Matrix : Default (H.263)
Codec ID : XVID
Codec ID/Hint : XviD
Duration : 2 h 15 min
Bit rate : 1 354 kb/s
Width : 720 pixels
Height : 304 pixels
Display aspect ratio : 2.40:1
Frame rate : 29.970 (30000/1001) FPS
Color space : YUV
Chroma subsampling : 4:2:0
Bit depth : 8 bits
Scan type : Progressive
Compression mode : Lossy
Bits/(Pixel*Frame) : 0.206
Stream size : 1.28 GiB (87%)
Writing library : Lavc57.100.103

Audio
ID : 1
Format : MPEG Audio
Format version : Version 1
Format profile : Layer 3
Format settings : Joint stereo / MS Stereo
Codec ID : 55
Codec ID/Hint : MP3
Duration : 2 h 15 min
Bit rate mode : Constant
Bit rate : 192 kb/s
Channel(s) : 2 channels
Sampling rate : 48.0 kHz
Compression mode : Lossy
Stream size : 186 MiB (12%)
Alignment : Aligned on interleaves
Interleave, duration : 24 ms (0.72 video frame)
Interleave, preload duration : 504 ms



Related torrents

Torrent NameAddedSizeSeedLeechHealth
14 days ago - in Movies1.29 GB00
Verified torrent
20 days ago - in Movies1.25 GB2506
Verified torrent
21 days ago - in Movies1.79 GB33372
Last Month - in Movies1.21 GB00
19 hours ago - in Movies1019.44 MB00
Verified torrent
20 days ago - in Movies2.39 GB27617

Note :

Feel free to post any comments about this torrent, including links to Subtitle, samples, screenshots, or any other relevant information. Please Dont Download anything from Comments, And Dont Post Links to Streaming Sites like Fmovies, Xmovies8, 123Movies, GoMovies, CMovieshd, Solarmovie, Watchfree, Putlockers, GoStream, m4ufree etc.

Comments (0 Comments)




Please login or create a FREE account to post comments

Latest Searches

| myveryfirsttime lily jordan | All Windows Office Activator | weapons list | mafia trainer | tomtom maps 970 | bob marley album kaya | Nacho Vidal Montse | Emily Willis BLACKED Sweet Payback | Class Dismissed S03E08 | Allstar instrumentals |