Quick Browse
Movies
TV shows
Music
Games
Applications
Anime
Other

Latest Articles

Friends
Torrents.me
Torrent Download
Free Movies
1337x
RARBG
Torrent Downloads

Red Sparrow 2018 KORSUB HDRip x264-STUTTERSHIT


    Seeders : 0      Leechers : 0

Hash :988784FF841D2AD6523A3813C550A9854866D114
Added :1 hour ago in Movies - Movies
Size :1.28 GB
Stream :Watch Online Full Movie @ Movie4u
Share :


Red Sparrow 2018 KORSUB HDRip x264-STUTTERSHIT
Download Direct And Anonymously








Note :

Please Update (Trackers Info) Before Downloading Torrents to See Updated Seeders And Leechers for Batter Download Speed.

Trackers List

Tracker NameLast CheckStatusSeedersLeechers




Torrent File Content (2 files)


Red.Sparrow.2018.KORSUB.HDRip.x264-STUTTERSHIT
     RARBG.txt -
31 bytes

     Red.Sparrow.2018.KORSUB.HDRip.x264-STUTTERSHIT.mp4 -
1.28 GB



Description



Movies : Drama : HDRip : English
Video
ID : 1
Format : AVC
Format/Info : Advanced Video Codec
Format profile : [email protected]
Format settings : CABAC / 5 Ref Frames
Format settings, CABAC : Yes
Format settings, ReFrames : 5 frames
Codec ID : avc1
Codec ID/Info : Advanced Video Coding
Duration : 2 h 15 min
Bit rate : 1 100 kb/s
Width : 720 pixels
Height : 304 pixels
Display aspect ratio : 2.40:1
Frame rate mode : Constant
Frame rate : 29.970 (29970/1000) FPS
Color space : YUV
Chroma subsampling : 4:2:0
Bit depth : 8 bits
Scan type : Progressive
Bits/(Pixel*Frame) : 0.168
Stream size : 1.03 GiB (80%)
Title : Red.Sparrow.2018.KORSUB.HDRip.x264-STUTTERSHIT
Writing library : x264 core 148 r2795 aaa9aa8
Encoding settings : cabac=1 / ref=5 / deblock=1:-1:-1 / analyse=0x3:0x113 / me=umh / subme=9 / psy=1 / psy_rd=1.00:0.15 / mixed_ref=1 / me_range=16 / chroma_me=1 / trellis=2 / 8x8dct=1 / cqm=0 / deadzone=21,11 / fast_pskip=1 / chroma_qp_offset=-3 / threads=24 / lookahead_threads=2 / sliced_threads=0 / nr=0 / decimate=1 / interlaced=0 / bluray_compat=0 / constrained_intra=0 / bframes=3 / b_pyramid=2 / b_adapt=2 / b_bias=0 / direct=3 / weightb=1 / open_gop=0 / weightp=2 / keyint=250 / keyint_min=25 / scenecut=40 / intra_refresh=0 / rc_lookahead=50 / rc=abr / mbtree=1 / bitrate=1100 / ratetol=1.0 / qcomp=0.60 / qpmin=0 / qpmax=69 / qpstep=4 / ip_ratio=1.40 / aq=1:1.00

Audio
ID : 2
Format : AAC
Format/Info : Advanced Audio Codec
Format profile : LC
Codec ID : mp4a-40-2
Duration : 2 h 15 min
Bit rate mode : Constant
Bit rate : 256 kb/s
Channel(s) : 2 channels
Channel positions : Front: L R
Sampling rate : 48.0 kHz
Frame rate : 46.875 FPS (1024 SPF)
Compression mode : Lossy
Stream size : 249 MiB (19%)
Title : Red.Sparrow.2018.KORSUB.HDRip.x264-STUTTERSHIT
Language : English
Default : Yes
Alternate group : 1



Related torrents

Torrent NameAddedSizeSeedLeechHealth
19 hours ago - in Movies1019.44 MB00
14 days ago - in Movies1003.68 MB00
Verified torrent
15 days ago - in Movies1.35 GB57416
Verified torrent
20 days ago - in Movies1018.16 MB30828
Verified torrent
Last Month - in Movies1014.84 MB74
Yesterday - in Movies1.31 GB00

Note :

Feel free to post any comments about this torrent, including links to Subtitle, samples, screenshots, or any other relevant information. Please Dont Download anything from Comments, And Dont Post Links to Streaming Sites like Fmovies, Xmovies8, 123Movies, GoMovies, CMovieshd, Solarmovie, Watchfree, Putlockers, GoStream, m4ufree etc.

Comments (0 Comments)




Please login or create a FREE account to post comments

Latest Searches

| FIGHTING ITA | Sexflexvideo 17 11 23 Flexi lesbian girlfriends 1080p MP4 Zsex3i | parasyte complete episode | e book omnibus | And Then I G | stepson fawx | Eyeborgs 2009 | poison s kiss | the the versus the world | 4d studio full version |