Quick Browse
Movies
TV shows
Music
Games
Applications
Anime
Other

Latest Articles

Friends
Torrents.me
Torrent Download
Free Movies
1337x
RARBG
Torrent Downloads

Verified torrent Winchester 2018 1080p WEB-DL DD5 1 H264-FGT


    Seeders : 3167      Leechers : 2089

Hash :6E4EB5A480B718A6ABDD0BD9B304670770D77707
Added :10 hours ago in Movies
Size :3.45 GB
Stream :Watch Online Full Movie @ Movie4u
Share :


Winchester 2018 1080p WEB-DL DD5 1 H264-FGT
Download Direct And Anonymously








Note :

Please Update (Trackers Info) Before Downloading Torrents to See Updated Seeders And Leechers for Batter Download Speed.

Trackers List

Tracker NameLast CheckStatusSeedersLeechers
udp://9.rarbg.me:2710/announce2 hours agosuccess3,1672,089
udp://9.rarbg.to:2710/announce2 hours agosuccess3,1672,089
udp://eddie4.nl:6969/announce2 hours agosuccess293367
udp://tracker.leechers-paradise.org:6969/announce2 hours agosuccess293367
udp://tracker.coppersurfer.tk:6969/announce2 hours agosuccess282341
udp://tracker.pirateparty.gr:6969/announce2 hours agosuccess282341
udp://tracker.opentrackr.org:1337/announce2 hours agosuccess231297
udp://public.popcorn-tracker.org:6969/announce2 hours agosuccess216284
udp://tracker.vanitycore.co:6969/announce2 hours agosuccess203281
udp://tracker.mgtracker.org:2710/announce2 hours agosuccess173205
udp://ipv4.tracker.harry.lu:80/announce2 hours agosuccess86145
udp://tracker.zer0day.to:1337/announce2 hours agosuccess00
udp://asnet.pw:2710/announce2 hours agosuccess00
http://tracker.opentrackr.org/announce2 hours agosuccess00
udp://mgtracker.org:6969/announce2 hours agosuccess00
udp://tracker.sktorrent.net:6969/announce2 hours agosuccess00
udp://tracker.x4w.co:6969/announce2 hours agosuccess00
udp://tracker.internetwarriors.net:1337/announce2 hours agosuccess00
udp://tracker.mg64.net:6881/announce2 hours agosuccess00
udp://p4p.arenabg.ch:1337/announce2 hours agosuccess00
udp://tracker.blackunicorn.xyz:6969/announce2 hours agosuccess00
udp://tracker4.piratux.com:6969/announce2 hours agosuccess00
udp://glotorrents.pw:6969/announce2 hours agosuccess00
udp://tracker.trackerfix.com:80/announce2 hours agosuccess00
udp://tracker.pomf.se:80/announce2 hours agosuccess00
http://tracker2.wasabii.com.tw:6969/announce2 hours agosuccess00
udp://explodie.org:6969/announce2 hours agosuccess00
udp://castradio.net:6969/announce2 hours agosuccess00
http://announce.torrentsmd.com:6969/announce2 hours agosuccess00
http://tracker.trackerfix.com/announce2 hours agosuccess00




Torrent File Content (3 files)


Winchester.2018.1080p.WEB-DL.DD5.1.H264-FGT
     English.srt -
71.17 KB

     RARBG.txt -
31 bytes

     Winchester.2018.1080p.WEB-DL.DD5.1.H264-FGT.mkv -
3.45 GB



Description



Movies : Horror : HD 1080p / 1080i : English
Video
ID : 1
Format : AVC
Format/Info : Advanced Video Codec
Format profile : [email protected]
Format settings : CABAC / 5 Ref Frames
Format settings, CABAC : Yes
Format settings, ReFrames : 5 frames
Codec ID : V_MPEG4/ISO/AVC
Duration : 1 h 39 min
Bit rate : 4 571 kb/s
Width : 1 908 pixels
Height : 792 pixels
Display aspect ratio : 2.40:1
Frame rate mode : Constant
Frame rate : 23.976 FPS
Color space : YUV
Chroma subsampling : 4:2:0
Bit depth : 8 bits
Scan type : Progressive
Bits/(Pixel*Frame) : 0.126
Stream size : 3.18 GiB (92%)
Title : Winchester.2018.1080p.WEB-DL.DD5.1.H264-FGT
Language : English
Default : Yes
Forced : No
Color range : Limited
Color primaries : BT.709
Transfer characteristics : BT.709
Matrix coefficients : BT.709

Audio
ID : 2
Format : AC-3
Format/Info : Audio Coding 3
Codec ID : A_AC3
Duration : 1 h 39 min
Bit rate mode : Constant
Bit rate : 384 kb/s
Channel(s) : 6 channels
Channel positions : Front: L C R, Side: L R, LFE
Sampling rate : 48.0 kHz
Frame rate : 31.250 FPS (1536 SPF)
Bit depth : 16 bits
Compression mode : Lossy
Delay relative to video : -42 ms
Stream size : 273 MiB (8%)
Title : Winchester.2018.1080p.WEB-DL.DD5.1.H264-FGT
Language : English
Service kind : Complete Main
Default : Yes
Forced : No

Text
ID : 3
Format : UTF-8
Codec ID : S_TEXT/UTF8
Codec ID/Info : UTF-8 Plain Text
Duration : 1 h 26 min
Bit rate : 47 b/s
Count of elements : 1048
Stream size : 30.3 KiB (0%)
Language : English
Default : Yes
Forced : No

Menu
00:00:00.000 : en:1
00:01:15.000 : en:2
00:10:02.000 : en:3
00:20:35.000 : en:4
00:30:57.000 : en:5
00:41:11.000 : en:6
00:51:04.000 : en:7
01:01:51.000 : en:8
01:11:18.000 : en:9
01:18:38.000 : en:10
01:30:54.000 : en:11


Related torrents

Torrent NameAddedSizeSeedLeechHealth
1 Year+ - in Movies4.64 GB61
4 days ago - in Movies3.51 GB00
Verified torrent
4 days ago - in Movies4.39 GB1,879644
4 days ago - in Other3.45 GB00
1 Comments
1 Good
Verified torrent
7 days ago - in Movies4.86 GB1,291617
7 days ago - in Movies3.75 GB00

Note :

Feel free to post any comments about this torrent, including links to Subtitle, samples, screenshots, or any other relevant information. Please Dont Download anything from Comments, And Dont Post Links to Streaming Sites like Fmovies, Xmovies8, 123Movies, GoMovies, CMovieshd, Solarmovie, Watchfree, Putlockers, GoStream, m4ufree etc.

Comments (0 Comments)




Please login or create a FREE account to post comments

Latest Searches

| 3 seconds or less | doors dcc | yin yang U S S | food and beverage service lillicrap | office 2010 86 | Spywareblaster 4 6 setup keygen | Seiren Oh Familia 2 Adult Comics Almerias | mb 378 | Poldark 720p season 2 | the trans siberian orchestra |